» » » Jimi Hendrix - Original Vinyl Transfer Series: 1st Batch [20LP Pack Bootlegs]

Jimi Hendrix - Original Vinyl Transfer Series: 1st Batch [20LP Pack Bootlegs] (1967-1970) FLAC скачать торрентом

26 февраль 2019, Вторник
600
0
Jimi Hendrix - Original Vinyl Transfer Series: 1st Batch [20LP Pack Bootlegs] 1967-1970 FLAC скачать торрентом

Информация о релизе

Год релиза: 1967-1970
Кодек (качество): FLAC (Lossless)
Количество треков: N/A
Тип рипа: tracks + .cue
Продолжительность: 14:14:15
Размер (вес): 4,63 Gb
Раздел: Hard Rock, Progressive Rock, Psychedelic Rock, Blues Rock
Скачать торрент файл [45,07 Kb] (cкачиваний: 366)

Треклист

OVT001 - Last British Concert-30.50 min
01. Spanish Castle Magic
02. Hey Baby
03. Ezy Rider
04. Hey Joe
05. Purple Haze
06. Voodoo Chile

OVT002 - Last American Concert-41.35 min
01. Interviev:James Marshal Hendrix
02. Hey Babe
03. In From The Storm
04. Hear My Train A'Comin'
05. Voodoo Child
06. Maui Sunset
07. Foxy Lady
08. Red House
09. Easy Rider
10. Purple Haze

OVT003 - Sky High!-42.56 min
01. skyhigh I
02. skyhigh II
03. skyhigh III

OVT004 - Smashing Amps-30.08 min
01. I
02. II
03. III
04. IV

OVT005 - Incident At Rainbow Bridge-35.57 min
01. I
02. II
03. III
04. IV
05. V
06. VI
07. VII

OVT006 - Live At Philharmonic Hall-34.17 min
01. I
02. II
03. III
04. IV
05. V
06. VI

OVT007 - Unknown Wellknown-40.52 min
01. Hey Babe/In From The Storm
02. Hear My Train A Comin
03. Voodoo Child
04. Maui Sunset
05. Foxy Lady
06. Red House
07. Easy Rider
08. Purple Haze

OVT008 - Guitar Hero-52.51 min
01. Radio One Theme
02. Experiencing The Blues
03. Can you Please Crawl Out
04. Your Window
05. I'M Your Hooche Coochie Man
06. Drivin' South
07. Spanish Castle Magic
08. Day tripper
09. Wait Until Tomorrow
10. Stone Free
11. Foxy Lady
12. Little Miss Lover
13. The Burning Of The Midnight Lamp/Hound Dog
14. Hey Joe
15. Getting My Heart Back Together Again

OVT009 - Can You Please Crawl Out Your Window-34.46 min
01. Interviev
02. Little Drumer Boy
03. Interviev:Alan Duglas
04. Little Drumer Boy
05. Silent Night
06. Mother Earth
07. Interviev:Paul McCartney
08. Interviev
09. The Burning Of The Midnight Lamp
10. Interviev
11. Can You Please Crawl Out Your Window
12. Interviev
13. Drivin' South
14. Tobaco Road

OVT010 - You Can't Use My Name-38.42 min
01. Cat Fish Blues
02. You Can't Use My Name
03. Gloomy Monday (Take 1)
04. Gloomy Monday (Take 2)
05. Untitled Instrumental
06. Dolly Dagger
07. Freedom
08. Stone Free
09. Hey Joe
10. Stone Free-Reprise
11. Maui Sunset

OVT011 - Davenport, Iowa '68-43.57 min
DR12 -0.23 dB -17.11 dB 1:14 ?-011_01
DR9 -1.52 dB -13.14 dB 8:53 ?-011_02
DR14 -4.78 dB -23.96 dB 0:51 ?-011_03
DR9 -1.86 dB -12.46 dB 3:02 ?-011_04
DR13 0.00 dB -22.91 dB 0:53 ?-011_05
DR9 -0.97 dB -12.63 dB 4:15 ?-011_06
DR14 -0.23 dB -18.65 dB 2:23 ?-011_07
DR10 -0.58 dB -13.80 dB 12:36 ?-011_08
DR15 -0.49 dB -20.87 dB 1:23 ?-011_09
DR11 -0.71 dB -12.65 dB 4:07 ?-011_10
DR12 -1.59 dB -19.10 dB 1:10 ?-011_11
DR11 -0.30 dB -14.11 dB 3:10 ?-011_12

OVT012 - Paris '67-49.34 min
01. Foxy Lady
02. The Wind cries Mary
03. Rock Me Baby
04. Red House
05. Purple Hase
06. Hey Joe
07. Purple Hase
08. Foxy Lady
09. Love Or Confusion
10. Killing Floor
11. Burning The Midnight Lamp
12. Hound Dog
13. Day Tripper

OVT013 - Electric Birthday Jimi-46.14 min
01. Interviev
02. Lonely Avenue(Demo)
03. World Traveler(Demo)
04. It's To Bad (Outtake)
05. Strato Strut((Outtake)
06. Cherokee Mist(Div.Mix)
07. Guitar Improvisation(Demo)
08. Midnight Lightning(Outtake)

OVT014 - First Rays Of The Rising Sun-46.24 min
01. Angel
02. Cherokee mist
03. Electric Ladyland
04. Midnight Lightning
05. Farther On Up The Road
06. Instrumental,Improvisation
07. Earth Blues
08. Look Over Yonder
09. Instrumental Jam
10. Somewhere Over The Rainbow
11. 1983...A Merman I Should Turn To Be
12. Peace In Mississipi

OVT015 - Hell's Session-49.04 min
01. Raimbow Jam
02. Electric Indian's
03. Voodoo Blues
04. Pali Gap Revisited
05. Tunnel Of Love

OVT016 - Fuckin' His Guitar For Denmark-40.14 min
01. Sgt. Peppers Lonely Hearts Club Band
02. Fire
03. Hey Joe
04. Catfish Blues
05. The Wind Cries Mary
06. Purple Hase
07. Spanish Castle Magic
08. Wild Thing

OVT017 - Two Sides Of The Same Genius-56.27 min
01. The Wind Cries Mary
02. Foxy Lady
03. Fire
04. Sgt. Peppers Lonely Hearts Club Band
05. Hey Joe
06. I Don't Live Today
07. The Burning The Midnight Lamp
08. Purple Hase
09. They Call Me Extra Man
10. Tajimi Boogie
11. Afternoon Blues Jame
12. Night Blues Jam (Part I)
13. Night Blues Jam (Part II)

OVT018 - Live At The Olympia Theatre, Paris-50.17 min
01. Killing Floor
02. Catfish Blues
03. Foxy Lady
04. Red House
05. The Wind Cries Mary
06. Driving South
07. Fire
08. Little Wing
09. Purple Haze

OVT019 - Loaded Guitar-47.40 min
01. Hear My Train A Comin
02. Isabella
03. Machine Gun
04. Purple Haze
05. Hey Joe
06. Purple Haze
07. Sgt. Peppers Lonely Hearts Club Band
08. Foxy Lady
09. Hey Joe
10. Sunshine Of Your Love
11. Hear My Train A Comin
12. I Don't Live Today
13. The Wind Cries Mary
14. Fire
15. Burning The Midnight Lamp

OVT020 - Unforgettable Experience-40.04 min
01. I Don't Live Today
02. Hey Joe
03. Purple Haze
04. The Wind Cries Mary
05. Foxy Lady
06. Red House
07. Hear My Train A Comin
Комментарии:
Прокомментировать
Кликните на изображение чтобы обновить код, если он неразборчив
Выбрать год релиза